<?xml version="1.0" standalone="no"?>
<!DOCTYPE svg PUBLIC "-//W3C//DTD SVG 1.1//EN" "http://www.w3.org/Graphics/SVG/1.1/DTD/svg11.dtd">
<svg xmlns="http://www.w3.org/2000/svg">
<metadata>Copyright (C) 2017 by original authors @ fontello.com</metadata>
<defs>
<font id="tupassi_icon" horiz-adv-x="1000" >
<font-face font-family="tupassi_icon" font-weight="400" font-stretch="normal" units-per-em="1000" ascent="850" descent="-150" />
<missing-glyph horiz-adv-x="1000" />
<glyph glyph-name="prenota" unicode="&#xe800;" d="M42 850a42 42 0 0 1-42-42v-916a42 42 0 0 1 42-42h972a14 14 0 0 1 10 4l194 195a14 14 0 0 1 4 9v750a42 42 0 0 1-41 42z m0-28h1139a14 14 0 0 0 13-14v-236h-1166v236a14 14 0 0 0 14 14z m250-55a69 69 0 1 1 69-70 70 70 0 0 1-69 70z m639 0a69 69 0 1 1 69-70 70 70 0 0 1-69 70z m-639-28a42 42 0 1 0-42-42 42 42 0 0 0 42 42z m639 0a42 42 0 1 0-42-42 42 42 0 0 0 42 42z m-903-195h1166v-472h-152a42 42 0 0 1-42-41v-153h-958a14 14 0 0 0-14 14z m1014-500h133l-147-146v133a14 14 0 0 0 14 13z" horiz-adv-x="1222" />

<glyph glyph-name="alert" unicode="&#xe801;" d="M592 532v-316a25 25 0 1 0-51 0v316a25 25 0 1 0 51 0z m-25-404a25 25 0 0 1-25-26v-50a25 25 0 1 1 50 0v50a25 25 0 0 1-25 26z m556-162a77 77 0 0 0-69-116h-975a77 77 0 0 0-68 38 76 76 0 0 0 0 78l487 845a79 79 0 0 0 137 0z m-44-25l-488 844a28 28 0 0 1-24 15 28 28 0 0 1-25-14l-488-845a27 27 0 0 1 0-28 28 28 0 0 1 25-13h975a28 28 0 0 1 25 13 27 27 0 0 1 0 28z" horiz-adv-x="1133" />

<glyph glyph-name="appuntamenti" unicode="&#xe802;" d="M500 850c-276 0-500-224-500-500a500 500 0 1 1 1000 0 14 14 0 1 1-27 0 473 473 0 1 0-236 410 14 14 0 1 1 13 23 500 500 0 0 1-250 67z m464-139c-148-155-291-323-438-477l-220 194a14 14 0 1 1-18-21l230-202a14 14 0 0 1 19 1c151 157 296 329 446 486 8 8 1 24-10 23-4 1-7-2-9-4z" horiz-adv-x="1000" />

<glyph glyph-name="banche" unicode="&#xe803;" d="M501 372a46 46 0 0 0 13-16 48 48 0 0 0 5-21 16 16 0 1 1 32 0 81 81 0 0 1-8 34 82 82 0 0 1-39 39 131 131 0 0 1-38 11v17a17 17 0 1 1-34 0v-15c-33-1-57-12-73-28a83 83 0 0 1-23-58 74 74 0 0 1 10-39 73 73 0 0 1 22-23c16-10 33-15 51-20 4-1 9-2 13-3v-120c-21 1-37 7-47 16a48 48 0 0 0-17 38 16 16 0 1 1-32 0 81 81 0 0 1 28-62c17-15 41-23 68-24v-15a17 17 0 1 1 34 0v17a122 122 0 0 1 49 16 74 74 0 0 1 26 27 93 93 0 0 1 0 83 77 77 0 0 1-22 25c-15 11-33 17-51 22l-2 1v113a81 81 0 0 0 35-15z m-10-141a54 54 0 0 0 20-18 51 51 0 0 0 8-29 53 53 0 0 0-6-26c-5-10-13-16-26-21a105 105 0 0 0-21-5v108a140 140 0 0 0 25-9z m-96 63a52 52 0 0 0-20 16 40 40 0 0 0-7 25 51 51 0 0 0 14 35 57 57 0 0 0 21 13 94 94 0 0 0 29 6v-107a210 210 0 0 0-37 12z m356-444a135 135 0 0 0-100 44 512 512 0 0 0-416 0 135 135 0 1 0-191 191c-13 34-21 83-21 129 0 104 51 214 140 301 84 83 189 132 280 132s197-49 281-132c89-87 140-197 140-301 0-46-8-95-21-129a135 135 0 0 0-92-235z m-96 60l3-4a122 122 0 1 1 173 172l-4 3 2 4c13 32 21 83 21 129 0 101-49 207-135 292-82 80-184 128-272 128s-189-48-271-128c-86-85-136-191-136-292 0-46 8-96 21-129l2-4-3-3a122 122 0 1 1 172-171l4 3 4-2a498 498 0 0 1 414 0z m-149 69a215 215 0 0 0-126 0 17 17 0 0 1-10-33 249 249 0 0 1 147 0 17 17 0 0 1-11 33z m-17 680h-91c-30 0-61 23-70 51l-30 96c-5 17-1 28 3 33 8 11 24 14 41 7l63-24a111 111 0 0 1 38-6 111 111 0 0 1 39 6l63 25c17 6 32 4 40-8 4-5 8-16 3-33l-30-96c-8-28-40-51-69-51z m-165 178a14 14 0 0 1-12-5c-2-4-5-10-1-22l30-96c7-22 33-42 57-42h91c23 0 49 20 56 42l30 96c4 12 2 18-1 22-4 6-13 6-25 2l-62-24a125 125 0 0 0-44-7 124 124 0 0 0-43 7l-63 24a37 37 0 0 1-13 3z" horiz-adv-x="886" />

<glyph glyph-name="biblioteche" unicode="&#xe804;" d="M152 202h1348v21h-110a345 345 0 0 0-3 260h113v22h-1349v0c-94 0-151-58-151-151s57-151 150-152h2z m-2 21v0a158 158 0 0 0-35 5 110 110 0 0 0-21 9 129 129 0 0 0-25 16 109 109 0 0 0-13 12 93 93 0 0 0-7 9 59 59 0 0 0-4 5 86 86 0 0 0-7 12 57 57 0 0 0-4 6 105 105 0 0 0-5 14 27 27 0 0 0-2 4c0 1 0 3-1 5a40 40 0 0 0-1 4c-1 3-1 6-2 10a52 52 0 0 0-1 6 30 30 0 0 0 0 5c0 3 0 5 0 8v0c0 4 0 7 0 10a8 8 0 0 0 0 2c0 3 1 5 1 9a1 1 0 0 0 0 0c1 3 2 7 2 10a3 3 0 0 0 0 1 129 129 0 0 0 22 45c2 3 4 6 6 8s4 5 6 7 6 6 9 8 5 4 8 6a77 77 0 0 0 7 5 80 80 0 0 0 10 6c3 1 5 2 8 4a1 1 0 0 0 1 0c2 1 5 2 8 3l1 0 5 2a169 169 0 0 0 34 5v0h1226a373 373 0 0 1 3-260h-1229z m1350-70v0h-1348v-21h112a345 345 0 0 0-3-261h-109v-21h1349c93 1 150 58 150 152s-57 151-151 151z m126-121c0-3 1-6 2-9a1 1 0 0 0 0-1c0-3 0-6 1-9a9 9 0 0 0 0-2c0-3 0-6 0-9v0c0-3 0-6 0-8a30 30 0 0 0 0-5 55 55 0 0 0-1-7c-1-3-1-6-2-10 0-1-1-2-1-4s-1-3-1-5a26 26 0 0 0-2-4 104 104 0 0 0-5-13 57 57 0 0 0-4-6 90 90 0 0 0-7-12 60 60 0 0 0-4-6 94 94 0 0 0-8-9 111 111 0 0 0-12-12 129 129 0 0 0-25-16 111 111 0 0 0-21-8 158 158 0 0 0-36-6v1h-1228a373 373 0 0 1 3 260h1225v0a166 166 0 0 0 34-5l6-2 1 0c3-1 5-2 8-3a1 1 0 0 0 1 0c2-1 5-3 8-4a80 80 0 0 0 10-6 77 77 0 0 0 7-4c2-2 5-4 7-6s7-6 10-9 4-4 6-7 4-5 6-7a130 130 0 0 0 21-46 3 3 0 0 0 1-1z m44 796v22h-1349v0c-94-1-151-58-151-152s57-151 151-151h1349v21h-109a345 345 0 0 0-4 260h113z m-1349-260v0a158 158 0 0 0-36 5 110 110 0 0 0-21 9 129 129 0 0 0-25 16 109 109 0 0 0-12 12 93 93 0 0 0-8 9 59 59 0 0 0-4 5 86 86 0 0 0-7 13 57 57 0 0 0-4 6 105 105 0 0 0-5 13 27 27 0 0 0-1 4c-1 2-1 3-2 5a40 40 0 0 0-1 4c0 3-1 7-1 10a52 52 0 0 0-1 7 30 30 0 0 0-1 4c0 3 0 6 0 8v1c0 3 0 6 1 9a8 8 0 0 0 0 2c0 3 0 6 1 9a1 1 0 0 0 0 0c0 4 1 7 2 10a3 3 0 0 0 0 1 129 129 0 0 0 21 45c2 3 4 6 7 8s4 5 6 7 6 6 9 8 5 4 8 6a77 77 0 0 0 7 5 80 80 0 0 0 9 6c3 1 6 2 9 4a1 1 0 0 0 0 0c3 1 6 2 9 3l1 0 5 2a169 169 0 0 0 34 5v0h1225a373 373 0 0 1 3-260h-1228z" horiz-adv-x="1670" />

<glyph glyph-name="book" unicode="&#xe805;" d="M837 850h-772a31 31 0 0 1-31-30v-12h-4a31 31 0 0 1-30-31v-3a30 30 0 0 1 30-30h4v-58h-4a30 30 0 0 1-30-30v-3a30 30 0 0 1 30-31h4v-58h-4a31 31 0 0 1-30-30v-3a30 30 0 0 1 30-30h4v-58h-4a30 30 0 0 1-30-31v-3a30 30 0 0 1 30-30h4v-58h-4a31 31 0 0 1-30-31v-3a30 30 0 0 1 30-30h4v-58h-4a31 31 0 0 1-30-30v-3a30 30 0 0 1 30-30h4v-58h-4a30 30 0 0 1-30-31v-3a30 30 0 0 1 30-30h4v-58h-4a30 30 0 0 1-30-31v-2a31 31 0 0 1 30-31h4v-12a30 30 0 0 1 31-30h772a30 30 0 0 1 31 30v940a31 31 0 0 1-31 30z m12-970a12 12 0 0 0-12-12h-772a12 12 0 0 0-12 12v12h34a31 31 0 0 1 31 31v3a30 30 0 0 1-31 30h-34v58h34a30 30 0 0 1 31 30v3a30 30 0 0 1-31 31h-34v58h34a30 30 0 0 1 31 30v3a30 30 0 0 1-31 30h-34v58h34a30 30 0 0 1 31 31v3a31 31 0 0 1-31 30h-34v58h34a30 30 0 0 1 31 30v3a30 30 0 0 1-31 31h-34v58h34a30 30 0 0 1 31 30v3a31 31 0 0 1-31 30h-34v58h34a30 30 0 0 1 31 31v3a30 30 0 0 1-31 30h-34v58h34a30 30 0 0 1 31 30v3a31 31 0 0 1-31 31h-34v12a12 12 0 0 0 12 12h772a12 12 0 0 0 12-12v-940z" horiz-adv-x="868" />

<glyph glyph-name="card" unicode="&#xe806;" d="M1240-150h-1193a47 47 0 0 0-47 47v612a47 47 0 0 0 47 47h1193a47 47 0 0 0 47-47v-612a47 47 0 0 0-47-47z m-1193 693a35 35 0 0 1-35-34v-612a35 35 0 0 1 35-35h1193a35 35 0 0 1 35 35v612a35 35 0 0 1-35 35z m1120-251h-1047a18 18 0 0 0-18 18v142a18 18 0 0 0 18 18h1047a18 18 0 0 0 18-18v-142a18 18 0 0 0-18-18z m-1047 166a6 6 0 0 1-6-6v-142a6 6 0 0 1 6-5h1047a6 6 0 0 1 6 5v142a6 6 0 0 1-6 6z m1067-329h0a12 12 0 0 1-12 12h-488a12 12 0 0 1-12-12h0a12 12 0 0 1 12-12h488a12 12 0 0 1 13 12z m-575 0h0a12 12 0 0 1-12 12h-488a12 12 0 0 1-12-12h0a12 12 0 0 1 12-12h488a12 12 0 0 1 12 12z m570-112h0a12 12 0 0 1-12 12h-488a12 12 0 0 1-12-12h0a12 12 0 0 1 12-12h488a12 12 0 0 1 12 12z m-570 0h0a12 12 0 0 1-12 12h-488a12 12 0 0 1-12-12h0a12 12 0 0 1 12-12h488a12 12 0 0 1 12 12z m453 528h-721l-115 29a24 24 0 0 0-18 29l33 127a24 24 0 0 0 29 17z m-720 12h621l-696 178a11 11 0 0 1-14-8l-32-127a12 12 0 0 1 8-14z m932-571v521a38 38 0 0 1-38 38h-1147l68 267a50 50 0 0 0 61 36l1150-293a50 50 0 0 0 36-61z m-1169 571h1131a50 50 0 0 0 51-50v-421l105 411a38 38 0 0 1-28 46l-1149 293a38 38 0 0 1-46-27z" horiz-adv-x="1408" />

<glyph glyph-name="case" unicode="&#xe807;" d="M489-148c-9 0 0 6 0 16v966h-380v-966c0-10 9-16 0-16a15 15 0 0 0-16 16v966a15 15 0 0 0 16 16h380a15 15 0 0 0 16-16v-966a15 15 0 0 0-16-16z m414 14v461a15 15 0 0 1-16 16h-321a15 15 0 0 1-16-16v-461a15 15 0 0 1 16-16c10 0 0 6 0 16v461h321v-459c0-10-9-16 0-16 8 0 16 6 16 14z m-675 774v100a2 2 0 0 1-2 2h-13a2 2 0 0 1-1-2v-100a2 2 0 0 1 1-2h13a2 2 0 0 1 2 2z m77 0v100a2 2 0 0 1-2 2h-13a2 2 0 0 1-1-2v-100a2 2 0 0 1 1-2h13a2 2 0 0 1 2 2z m77 0v100a2 2 0 0 1-2 2h-13a2 2 0 0 1-1-2v-100a2 2 0 0 1 1-2h13a2 2 0 0 1 2 2z m-154-172v101a2 2 0 0 1-2 1h-13a2 2 0 0 1-1-1v-101a2 2 0 0 1 1-1h13a2 2 0 0 1 2 1z m77 0v101a2 2 0 0 1-2 1h-13a2 2 0 0 1-1-1v-101a2 2 0 0 1 1-1h13a2 2 0 0 1 2 1z m77 0v101a2 2 0 0 1-2 1h-13a2 2 0 0 1-1-1v-101a2 2 0 0 1 1-1h13a2 2 0 0 1 2 1z m-154-175v100a2 2 0 0 1-2 2h-13a2 2 0 0 1-1-2v-100a2 2 0 0 1 1-1h13a2 2 0 0 1 2 1z m77 0v100a2 2 0 0 1-2 2h-13a2 2 0 0 1-1-2v-100a2 2 0 0 1 1-1h13a2 2 0 0 1 2 1z m77 0v100a2 2 0 0 1-2 2h-13a2 2 0 0 1-1-2v-100a2 2 0 0 1 1-1h13a2 2 0 0 1 2 1z m-154-172v101a2 2 0 0 1-2 1h-13a2 2 0 0 1-1-1v-100a2 2 0 0 1 1-2h13a2 2 0 0 1 2 1z m77 0v101a2 2 0 0 1-2 1h-13a2 2 0 0 1-1-1v-100a2 2 0 0 1 1-2h13a2 2 0 0 1 2 1z m77 0v101a2 2 0 0 1-2 1h-13a2 2 0 0 1-1-1v-100a2 2 0 0 1 1-2h13a2 2 0 0 1 2 1z m-154-169v100a2 2 0 0 1-2 2h-13a2 2 0 0 1-1-2v-100a2 2 0 0 1 1-2h13a2 2 0 0 1 2 2z m77 0v100a2 2 0 0 1-2 2h-13a2 2 0 0 1-1-2v-100a2 2 0 0 1 1-2h13a2 2 0 0 1 2 2z m77 0v100a2 2 0 0 1-2 2h-13a2 2 0 0 1-1-2v-100a2 2 0 0 1 1-2h13a2 2 0 0 1 2 2z m276 171v101a2 2 0 0 1-2 1h-12a2 2 0 0 1-2-1v-101a2 2 0 0 1 2-1h12a2 2 0 0 1 2 1z m77 0v101a2 2 0 0 1-2 1h-12a2 2 0 0 1-2-1v-101a2 2 0 0 1 2-1h12a2 2 0 0 1 2 1z m77 0v101a2 2 0 0 1-2 1h-12a2 2 0 0 1-2-1v-101a2 2 0 0 1 2-1h12a2 2 0 0 1 2 1z m-154-171v100a2 2 0 0 1-2 2h-12a2 2 0 0 1-2-2v-100a2 2 0 0 1 2-2h12a2 2 0 0 1 2 2z m77 0v100a2 2 0 0 1-2 2h-12a2 2 0 0 1-2-2v-100a2 2 0 0 1 2-2h12a2 2 0 0 1 2 2z m77 0v100a2 2 0 0 1-2 2h-12a2 2 0 0 1-2-2v-100a2 2 0 0 1 2-2h12a2 2 0 0 1 2 2z" horiz-adv-x="1005" />

<glyph glyph-name="close" unicode="&#xe808;" d="M986-128a13 13 0 0 0-18-18l-473 477-473-477a13 13 0 1 0-18 18l473 478-473 478a13 13 0 1 0 18 18l473-477 473 477a13 13 0 1 0 18-18l-473-478z" horiz-adv-x="990" />

<glyph glyph-name="comuni" unicode="&#xe809;" d="M892-150h-892v125h892z m-876 16h860v93h-860z m884 610h-892v102l382 255a119 119 0 0 0 64 17c25 0 47-6 62-17l384-255z m-876 16h860v70l-385 261c-11 8-28 11-45 11a109 109 0 0 1-47-11l-383-261z m258-533h-204v94h204z m-188 16h172v63h-172z m188 423h-204v94h204z m-188 15h172v63h-172z m156-375h-140v375h140z m-125 16h110v344h-110z m423-94h-204v93h204z m-188 15h172v63h-172z m188 423h-204v94h204z m-188 16h172v62h-172z m157-376h-141v375h140z m-126 16h110v344h-110z m423-94h-204v93h204z m-188 15h172v63h-172z m188 423h-204v94h204z m-188 16h172v62h-172z m157-376h-141v375h141z m-125 16h109v344h-110z m-642 500h876v16h-876z" horiz-adv-x="900" />

<glyph glyph-name="dentisti" unicode="&#xe80a;" d="M59 792a200 200 0 0 1 128-341v-90h-67v-452a59 59 0 0 1 59-59h42a59 59 0 0 1 59 59v452h-67v90a200 200 0 1 1-154 341z m208-444v-439c0-33-28-46-46-46h-42c-18 0-49 13-46 46v439z m64 171a186 186 0 1 0 0 263 186 186 0 0 0 0-263z m-242 116l193 129 14-22-193-129z m78-86l-14 21 142 91 14-22z m571 210h-144a63 63 0 0 1-62-63v-35a63 63 0 0 1 62-63h40v-235a18 18 0 0 1 0-2h-68v-452a59 59 0 0 1 60-59h41a59 59 0 0 1 59 59v452h-67a18 18 0 0 1 0 2v225a16 16 0 0 1-1 4v21h0a13 13 0 0 1-13 11h-51a37 37 0 0 0-37 37v35a37 37 0 0 0 37 37h144a13 13 0 1 1 0 26z m-24-411v-439c0-33-28-46-47-46h-41c-19 0-47 15-47 46v439z m-79 245c0 0-1 2-1 5h1z" horiz-adv-x="751" />

<glyph glyph-name="down" unicode="&#xe80b;" d="M0 825a25 25 0 0 0 43 18l941-932 941 932a25 25 0 1 0 35-36l-958-950a25 25 0 0 0-36 0l-958 950a25 25 0 0 0-8 18z" horiz-adv-x="1968" />

<glyph glyph-name="entra" unicode="&#xe80c;" d="M243 850a12 12 0 0 1-9-12v-290a12 12 0 1 1 23-1s0 1 0 1v279h488v-954h-488v279a12 12 0 1 1-23 1s0-1 0-1v-290a12 12 0 0 1 11-12h512a12 12 0 0 1 12 12v976a12 12 0 0 1-12 12h-512a12 12 0 0 1-2 0z m188-290a12 12 0 0 1-7-21l188-177h-599a7 7 0 0 1-2 0 12 12 0 1 1 2-24h598l-188-177a12 12 0 0 1 16-17l0 0 209 198a12 12 0 0 1 1 16l-1 1-209 197a12 12 0 0 1-8 4z" horiz-adv-x="769" />

<glyph glyph-name="facebook" unicode="&#xe80d;" d="M519 684h-94c-74 0-88-35-88-86v-114h176l-23-178h-153v-456h-184v456h-153v178h153v131c0 152 94 235 229 235a1177 1177 0 0 0 137-7z" horiz-adv-x="519" />

<glyph glyph-name="gestione" unicode="&#xe80e;" d="M858 850a14 14 0 0 0 10-13v-316a14 14 0 0 0-13-13h-276v-171h408a8 8 0 0 0 2 0 14 14 0 0 0 11-13v-184h118a8 8 0 0 0 3 0 14 14 0 0 0 11-14v-263a14 14 0 0 0-14-13h-263a14 14 0 0 0-13 13v263a14 14 0 0 0 13 13h119v172h-395v-171h118a14 14 0 0 0 14-14v-263a14 14 0 0 0-14-13h-263a14 14 0 0 0-13 13v263a14 14 0 0 0 11 13 8 8 0 0 0 2 0h119v172h-395v-171h118a14 14 0 0 0 13-14v-263a14 14 0 0 0-13-13h-263a14 14 0 0 0-13 13v263a14 14 0 0 0 11 14 8 8 0 0 0 2 0h119v184a14 14 0 0 0 13 13h408v171h-277a14 14 0 0 0-13 13v316a14 14 0 0 0 13 13h579a13 13 0 0 0 3 0z m-16-26h-552v-290h552z m263-711h-237v-237h237z m-421 0h-237v-237h237z m-421 0h-237v-237h237z" horiz-adv-x="1132" />

<glyph glyph-name="gestori" unicode="&#xe80f;" d="M318 105a50 50 0 0 0-50 47v181c-31-18-69-19-98-3a94 94 0 0 0-44 58 107 107 0 0 0 11 82 141 141 0 0 0 12 18 193 193 0 0 0-26-2 98 98 0 1 0 0 196 159 159 0 0 0 27-2 122 122 0 0 0-16 23 95 95 0 0 0-9 74 100 100 0 0 0 46 59 94 94 0 0 0 49 14 98 98 0 0 0 84-48 167 167 0 0 0 13-27 285 285 0 0 0 11 26l0 0a100 100 0 0 0 87 49 104 104 0 0 0 49-12 98 98 0 0 0 47-61 94 94 0 0 0-10-73 123 123 0 0 0-16-22 152 152 0 0 0 22 2 107 107 0 0 0 77-35 87 87 0 0 0 24-64c0-51-49-97-105-97a127 127 0 0 0-19 2 146 146 0 0 0 11-17 117 117 0 0 0 13-76 100 100 0 0 0-44-64c-26-16-64-15-94 1v-180c-4-28-26-49-52-49z m-43 240v-193a44 44 0 0 1 43-40c23 0 42 18 45 43v190l5-3c30-18 67-19 93-3a93 93 0 0 1 40 59 110 110 0 0 1-12 72 148 148 0 0 1-16 22l-6 8 10-2a131 131 0 0 1 26-3c53 0 99 42 99 90a81 81 0 0 1-23 60 100 100 0 0 1-72 32 160 160 0 0 1-29-3l-10-2 6 7a139 139 0 0 1 21 28l0 0a88 88 0 0 1 10 68 92 92 0 0 1-44 57 97 97 0 0 1-46 11 92 92 0 0 1-81-45 266 266 0 0 1-14-34l-3-9-5 13a189 189 0 0 1-13 30 91 91 0 0 1-79 45 87 87 0 0 1-46-12 93 93 0 0 1-43-56 89 89 0 0 1 9-69 141 141 0 0 1 21-29l8-8-11 2a160 160 0 0 1-36 5 92 92 0 1 1 0-184 195 195 0 0 1 34 4l8 1-5-7a191 191 0 0 1-16-23l0-1a101 101 0 0 1-10-76 87 87 0 0 1 40-55c28-15 68-13 97 7z m41 154a98 98 0 0 0-44 11l0 0a85 85 0 0 0-40 53 84 84 0 0 0 9 65 87 87 0 0 0 75 42 91 91 0 0 0 42-11 85 85 0 0 0 39-52 80 80 0 0 0-9-64 83 83 0 0 0-72-44z m-41 17a91 91 0 0 1 41-10 76 76 0 0 1 66 40l0 0a73 73 0 0 1 9 59 78 78 0 0 1-36 48 84 84 0 0 1-39 11 80 80 0 0 1-69-40 77 77 0 0 1-9-59 79 79 0 0 1 37-49z m43-666a318 318 0 0 0-318 318 312 312 0 0 0 43 160 5 5 0 0 0 1 2v0l1 1a48 48 0 0 0 40 21 50 50 0 0 0 50-49 43 43 0 0 0-5-20 8 8 0 0 0-1-2l0-1v0l0-1a222 222 0 0 1-31-111 219 219 0 1 1 437 0 214 214 0 0 1-30 111 7 7 0 0 0-2 4 44 44 0 0 0-4 21 50 50 0 0 0 91 27l1-1a311 311 0 0 0 44-161 317 317 0 0 0-317-319z m-268 476v0l-1-1a305 305 0 0 1-42-157 312 312 0 0 1 311-311 312 312 0 0 1 268 469l-1 1a43 43 0 0 1-79-23 37 37 0 0 1 4-19l0 0v-1a5 5 0 0 1 0-1l0 0 1-1a221 221 0 0 0 31-114 225 225 0 1 0-450 0 228 228 0 0 0 31 114 8 8 0 0 0 0 2l1 0v1l0 0a36 36 0 0 1 4 18 43 43 0 0 1-43 43 42 42 0 0 1-34-18 5 5 0 0 0-1-2z m79-46z" horiz-adv-x="635" />

<glyph glyph-name="linkedin" unicode="&#xe810;" d="M125 617h-1c-76 0-124 52-124 117 0 66 50 116 127 116 77 0 124-50 125-116 1-65-48-117-127-117z m113-767h-225v675h225z m808 0h-224v361c0 91-32 153-113 153-62 0-99-42-116-82-5-15-7-35-7-55v-377h-224c2 612 0 675 0 675h224v-98h-2c30 46 83 114 204 114 148 0 258-97 258-304z" horiz-adv-x="1046" />

<glyph glyph-name="login" unicode="&#xe811;" d="M795 162l-1 3a242 242 0 0 1-238 199h-121a242 242 0 0 1-239-204 97 97 0 0 1 95-112h409a97 97 0 0 1 95 114z m-563-69c-17 18-22 43-18 67 17 110 110 189 223 189h118c110 0 205-77 225-183l1-3a84 84 0 0 0-19-70 86 86 0 0 0-66-30h-399a88 88 0 0 0-65 30z m273 303a177 177 0 1 0 177 177 177 177 0 0 0-177-177z m0 339a162 162 0 1 1 161-162 162 162 0 0 1-161 162z m-5-885a500 500 0 0 0-354 854 500 500 0 0 0 708-708 497 497 0 0 0-354-146z m0 985a485 485 0 0 1-343-828 485 485 0 1 1 686 686 482 482 0 0 1-343 142z" horiz-adv-x="1000" />

<glyph glyph-name="man" unicode="&#xe812;" d="M984-150h-319a7 7 0 1 0 0 13h319a0 0 0 0 1 1 1v87c0 90-24 168-72 233s-116 112-204 142a14 14 0 0 0-5 22 287 287 0 1 1-410 0 14 14 0 0 0-5-22c-88-30-156-78-204-142s-72-143-72-233v-87a0 0 0 0 1 1-1h319a7 7 0 0 0 0-13h-319a14 14 0 0 0-14 14v87c0 93 25 174 74 241s120 116 210 146a0 0 0 0 1 1 1 0 0 0 0 1 0 0 300 300 0 1 0 429 0 0 0 0 0 1 0 0 0 0 0 0 1 0-1c90-30 161-79 210-146s74-148 74-241v-87a14 14 0 0 0-14-14z m-358 380l-104-19 124-220a7 7 0 0 0-1-9l-140-124a10 10 0 0 0-12 0l-140 124a7 7 0 0 0-1 9l124 220-104 19a7 7 0 0 0-6 8l3 15a7 7 0 0 0 8 6l114-20 2 3a7 7 0 0 0 12 0l2-3 114 20a7 7 0 0 0 8-6l2-15a7 7 0 0 0-5-8z m-122-358l123 114a7 7 0 0 1 1 9l-123 211a7 7 0 0 1-12 0l-123-211a7 7 0 0 1 1-9l123-114a7 7 0 0 1 10 0z" horiz-adv-x="998" />

<glyph glyph-name="medici" unicode="&#xe813;" d="M159 850a33 33 0 1 0-33-33 33 33 0 0 0 33 33z m0 0a33 33 0 1 0-33-33 33 33 0 0 0 33 33z m-57-521c-3 13-75 303-82 326-12 44-8 79 11 104 32 42 98 43 99 43h0v13c-3 0-73-1-109-48-22-29-27-67-14-116 7-23 82-322 82-325z m-38-20a53 53 0 0 1 3-21 322 322 0 0 1 68-125 190 190 0 0 1 124-64v27a189 189 0 0 0-139 174 41 41 0 0 1-5 22 30 30 0 0 1-45-3 21 21 0 0 1-6-10z m259 508a33 33 0 1 1 33 33 33 33 0 0 1-33-33z m185-166c12 49 8 87-14 116-36 47-106 48-109 48v-14c0 0 67 0 99-42 19-25 23-60 11-104-7-23-79-313-82-326l13-3c0 3 75 303 82 325z m-63-332a30 30 0 0 1-45 3 41 41 0 0 1-5-22 189 189 0 0 0-139-174v-27a190 190 0 0 1 124 64 322 322 0 0 1 67 125 53 53 0 0 1 4 21 21 21 0 0 1-6 10z m378 42a103 103 0 1 1-102-102 103 103 0 0 1 103 102z m-13 0a89 89 0 1 0-89 90 90 90 0 0 0 89-90z m-26 0a63 63 0 1 1-63-63 63 63 0 0 1 63 63z m-14 0a50 50 0 1 0-49 50 50 50 0 0 0 50-50z m-269-510c56 2 160 5 217 65l0 0a262 262 0 0 1 62 157 622 622 0 0 1-20 199l-13-3a609 609 0 0 0 20-195 249 249 0 0 0-59-150c-47-49-128-58-208-60h0a209 209 0 0 0-192 87 289 289 0 0 0-42 157l-13 0a302 302 0 0 1 44-164l1 0a223 223 0 0 1 181-94q11 0 22 1z" horiz-adv-x="824" />

<glyph glyph-name="musei" unicode="&#xe814;" d="M345 554c0 2 0 5 0 7a107 107 0 0 1-48 91h433a107 107 0 0 1-48-91c0-2 1-5 1-7z m665 66a182 182 0 0 0-180-185 128 128 0 0 0-130 126 89 89 0 0 0 88 91 62 62 0 0 0 63-61 42 42 0 0 0-41-42 27 27 0 0 0-28 27 9 9 0 0 1-9 9 9 9 0 0 1-9-9 45 45 0 0 1 45-45h1a59 59 0 0 1 59 61 80 80 0 0 1-81 78h-549a80 80 0 0 1-80-78 59 59 0 0 1 58-61 45 45 0 0 1 46 45 9 9 0 0 1-8 9h0a9 9 0 0 1-9-9 27 27 0 0 0-28-27 42 42 0 0 0-41 42 62 62 0 0 0 62 61 90 90 0 0 0 88-91 128 128 0 0 0-128-126h-2a182 182 0 0 0-179 185c1 67 28 122 77 160 47 35 112 53 185 52h468a372 372 0 0 0 79-7 9 9 0 0 1 3 0l1 0c109-24 177-98 179-205z m-188 224a385 385 0 0 1-74 6h-468a385 385 0 0 1-74-6l-18-4c-39-9-75-24-103-46-54-41-84-101-85-174a200 200 0 0 1 188-202v-568h18v568a146 146 0 0 1 136 118h343a145 145 0 0 1 137-118v-568h17v568a200 200 0 0 1 188 202c-2 113-74 194-188 221z m-507-994h18v525h-18z m126 0h18v525h-17z m127 0h18v525h-18z m127 0h18v525h-18z" horiz-adv-x="1027" />

<glyph glyph-name="ospedali" unicode="&#xe815;" d="M340 652a10 10 0 0 0 9 9h66v66a9 9 0 1 0 19 0v-66h66a9 9 0 0 0 0-19h-66v-66a9 9 0 1 0-19 0v67h-66a10 10 0 0 0-9 9z m-29-198h76a9 9 0 1 1 0 19h-76a9 9 0 1 1 0-19z m142 9a10 10 0 0 1 9-9h76a9 9 0 1 1 0 19h-76a10 10 0 0 1-9-10z m-142-85h76a9 9 0 1 1 0 19h-76a9 9 0 1 1 0-19z m227 19h-76a9 9 0 1 1 0-19h76a9 9 0 1 1 0 19z m-227-94h76a9 9 0 1 1 0 19h-76a9 9 0 1 1 0-19z m227 19h-76a9 9 0 1 1 0-19h76a9 9 0 1 1 0 19z m-227-95h76a9 9 0 1 1 0 19h-76a9 9 0 1 1 0-19z m227 19h-76a9 9 0 1 1 0-19h76a9 9 0 1 1 0 19z m-227-94h76a9 9 0 1 1 0 19h-76a9 9 0 1 1 0-19z m227 19h-76a9 9 0 1 1 0-19h76a9 9 0 1 1 0 19z m-227-94h76a9 9 0 1 1 0 18h-76a9 9 0 1 1 0-18z m227 18h-76a9 9 0 1 1 0-18h76a9 9 0 1 1 0 18z m-151-94a9 9 0 1 1 0 19h-76a9 9 0 1 1 0-19z m151 19h-76a9 9 0 1 1 0-19h76a9 9 0 1 1 0 19z m311 519v-680a10 10 0 0 0-9-9h-831a10 10 0 0 0-9 9v680a10 10 0 0 0 9 9h217v293a10 10 0 0 0 10 9h377a10 10 0 0 0 10-9v-293h217a10 10 0 0 0 9-9z m-830-670h207v660h-207z m226 0h132v66a10 10 0 0 0 10 9h75a10 10 0 0 0 10-9v-66h132v962h-359z m208 0v56h-57v-56z m377 660h-207v-660h207z m-669-56h-76a9 9 0 0 1 0-19h76a9 9 0 0 1 0 19z m0-76h-76a9 9 0 0 1 0-19h76a9 9 0 0 1 0 19z m0-75h-76a9 9 0 0 1 0-19h76a9 9 0 0 1 0 19z m0-76h-76a9 9 0 0 1 0-19h76a9 9 0 0 1 0 19z m0-75h-76a9 9 0 0 1 0-19h76a9 9 0 0 1 0 19z m0-76h-76a9 9 0 0 1 0-19h76a9 9 0 0 1 0 19z m0-75h-76a9 9 0 1 1 0-19h76a9 9 0 1 1 0 19z m0-76h-76a9 9 0 0 1 0-19h76a9 9 0 0 1 0 19z m528 510h75a9 9 0 0 1 0 19h-75a9 9 0 0 1 0-19z m0-76h75a9 9 0 0 1 0 19h-75a9 9 0 0 1 0-19z m0-75h75a9 9 0 0 1 0 19h-75a9 9 0 0 1 0-19z m0-76h75a9 9 0 0 1 0 19h-75a9 9 0 0 1 0-19z m0-75h75a9 9 0 0 1 0 19h-75a9 9 0 0 1 0-19z m0-76h75a9 9 0 0 1 0 19h-75a9 9 0 0 1 0-19z m0-75h75a9 9 0 0 1 0 19h-75a9 9 0 0 1 0-19z m0-76h75a9 9 0 0 1 0 19h-75a9 9 0 0 1 0-19z" horiz-adv-x="849" />

<glyph glyph-name="osserva" unicode="&#xe816;" d="M935 850c-382 0-721-192-931-487a22 22 0 0 1 0-25c210-295 549-488 931-488s720 193 930 488a22 22 0 0 1 0 25c-210 295-549 487-930 487z m0-43c361 0 681-180 885-457-204-277-524-457-885-457s-682 180-885 457c203 278 523 457 885 457z m0-174a283 283 0 1 1 282-283 283 283 0 0 1-282 283z m0-44a239 239 0 1 0-239-239 239 239 0 0 0 239 239z" horiz-adv-x="1869" />

<glyph glyph-name="parchi" unicode="&#xe817;" d="M433 850a31 31 0 1 0-31-31 31 31 0 0 0 31 31z m-31-834a31 31 0 1 1 31 31 31 31 0 0 1-31-31z m-197 734a31 31 0 1 1 11 42 31 31 0 0 1-11-42z m402-696a31 31 0 1 1 11 42 31 31 0 0 1-11-42z m-538 538a31 31 0 1 1-11 42 31 31 0 0 1 11-42z m696-402a31 31 0 1 1-11 42 31 31 0 0 1 11-42z m-765 227a31 31 0 1 1 31 31 31 31 0 0 1-31-31z m402 0a31 31 0 1 1 31 31 31 31 0 0 1-31-31z m401 0a31 31 0 1 1 31 31 31 31 0 0 1-31-31z m-745-216a31 31 0 1 1 11 42 31 31 0 0 1-11-42z m696 402a31 31 0 1 1 11 42 31 31 0 0 1-11-42z m-538-560a31 31 0 1 1-11 42 31 31 0 0 1 11-42z m402 696a31 31 0 1 1-11 42 31 31 0 0 1 11-42z m-304-887l12-2 105 563-13 3z m131 564l-12-3 104-563 12 2z m357 1a369 369 0 1 0-369 370 370 370 0 0 0 369-370z m-15 0a355 355 0 1 1-354-354 355 355 0 0 1 354 354z" horiz-adv-x="865" />

<glyph glyph-name="parrucchieri" unicode="&#xe818;" d="M414-150a94 94 0 0 0-64 163c6 5 15 14 11 51-2 19-23 75-23 76-10 26-19 49-19 49s-12 33-16 42a92 92 0 0 1-32 42l-50 33 0 0-122 510s-4 20-5 24c-1 9 6 10 6 10l1 0 0-1 195-523 71-186c21-56 27-71 28-73 7-11 17-24 46-33h0a95 95 0 0 0 63-118 94 94 0 0 0-90-66z m-191 457l49-32a94 94 0 0 0 33-44c4-9 16-41 16-41s9-23 19-50c1-2 21-57 23-76 4-35-3-45-12-53a92 92 0 1 1 90 21h0c-30 9-40 22-47 34-3 4-12 28-29 74l-71 186-195 521c-1 0-3-2-3-7 1-4 5-22 5-24z m191-435a72 72 0 1 0 69 51h0a72 72 0 0 0-69-51z m0 142a70 70 0 1 1 67-90h0a70 70 0 0 1-67 90z m-161 298a22 22 0 1 0 6 1 22 22 0 0 0-6-1z m0 42a20 20 0 0 1-18-11 20 20 0 0 1 24-28h0a20 20 0 0 1-6 39z m39-6l-39 104 0 1 141 397 1 0s6-1 5-10c0-4-3-16-4-24l0 0z m-36 104l36-97 102 462c2 12 4 21 4 23 1 5-2 7-3 7z m-162-602a94 94 0 0 0-27 184c32 10 38 20 44 30 0 1 1 2 2 3 7 12 94 253 95 256l3 9 7-29 34-22-19-13c0 0-20-12-31-41-3-9-14-42-14-42-1-1-37-85-41-121-4-37 5-46 11-51a94 94 0 0 0 26-42h0a94 94 0 0 0-90-121z m117 474l-1-2c-4-10-88-244-95-256-1-1-2-2-2-3-7-11-12-21-46-31a92 92 0 1 1 115-61h0a92 92 0 0 1-25 40c-8 8-16 18-12 54 4 36 40 120 41 121 0 0 11 33 14 42 11 30 31 42 32 42l16 11-32 21z m-117-452a72 72 0 1 0 21 3 71 71 0 0 0-21-3z m0 142a70 70 0 0 1-61-37 69 69 0 0 1-6-54h0a70 70 0 1 1 67 90z m176 321a17 17 0 0 1-34 0z m-34-3a17 17 0 0 1 34 0z" horiz-adv-x="508" />

<glyph glyph-name="arriva" unicode="&#xe819;" d="M500 850a500 500 0 1 1 500-500 499 499 0 0 1-500 500z m0-978c-263 0-478 215-478 478s215 478 478 478 478-215 478-478-215-478-478-478z m11 467h-255v22h233v422h22z" horiz-adv-x="1000" />

<glyph glyph-name="right" unicode="&#xe81b;" d="M13-150a13 13 0 0 0-9 22l473 478-473 478a13 13 0 1 0 18 18l483-487a13 13 0 0 0 0-18l-483-487a13 13 0 0 0-9-4z" horiz-adv-x="508" />

<glyph glyph-name="ristoranti" unicode="&#xe81c;" d="M1425-41h-1306a10 10 0 0 0-10 10 663 663 0 0 0 1326 0 10 10 0 0 0-10-10z m-1296 20h1286a643 643 0 0 1-1285 0z m1405-129h-1524a10 10 0 0 0-10 10v109a10 10 0 0 0 10 10h1524a10 10 0 0 0 10-10v-109a10 10 0 0 0-10-10z m-1513 20h1503v89h-1503z m761 752v218a10 10 0 1 1-20 0v-218a10 10 0 1 1 20 0z m109 218a10 10 0 0 1-10 10h-218a10 10 0 1 1 0-20h218a10 10 0 0 1 10 10z" horiz-adv-x="1544" />

<glyph glyph-name="salaattesa" unicode="&#xe81d;" d="M875 13a13 13 0 0 0-13-13h-87v-138a13 13 0 1 0-25 0v138h-625v-138a13 13 0 1 0-25 0v138h-87a13 13 0 1 0 0 25h849a13 13 0 0 0 13-12z m-325 675a163 163 0 1 0 163-163 163 163 0 0 0-163 163z m25 0a138 138 0 1 1 138 137 138 138 0 0 1-138-137z m88-13h50a13 13 0 0 1 12 13v75a13 13 0 0 1-25 0v-63h-37a13 13 0 1 1 0-25z m-588-562v150a113 113 0 0 0 113 112h100a113 113 0 0 0 112-112v-150a13 13 0 0 0-12-13h-300a13 13 0 0 0-13 13z m25 12h275v138a88 88 0 0 1-87 87h-100a88 88 0 0 1-88-87z m375-12v150a113 113 0 0 0 113 112h100a113 113 0 0 0 112-112v-150a13 13 0 0 0-12-13h-300a13 13 0 0 0-13 13z m25 12h275v138a88 88 0 0 1-87 87h-100a88 88 0 0 1-88-87z" horiz-adv-x="875" />

<glyph glyph-name="scarica" unicode="&#xe81e;" d="M1301 534a15 15 0 0 1-15 12h-378a15 15 0 1 1-1-30h364v-636h-1241v636h363a15 15 0 1 1 1 30h-379a15 15 0 0 1-15-15v-666a15 15 0 0 1 15-15h1271a15 15 0 0 1 15 15v666a15 15 0 0 1 0 3z m-378-245a15 15 0 0 1-26 10l-231-245v779a9 9 0 0 1 0 3 15 15 0 1 1-31-3v-778l-230 244a15 15 0 0 1-23-20l0 0 258-273a15 15 0 0 1 21 0l1 0 257 273a15 15 0 0 1 4 10z" horiz-adv-x="1301" />

<glyph glyph-name="scrolldown" unicode="&#xe81f;" d="M1000 350c0 271-229 500-500 500s-500-229-500-500 229-500 500-500 500 229 500 500z m-952 0c0 245 207 452 452 452s452-207 452-452-207-452-452-452-452 207-452 452z m469-160a24 24 0 0 0-34 0l-214 215a24 24 0 0 0 34 33l197-197 197 197a24 24 0 0 0 34-33z" horiz-adv-x="1000" />

<glyph glyph-name="servizi" unicode="&#xe820;" d="M500 95a255 255 0 1 0 255 255 255 255 0 0 0-255-255z m0 489a234 234 0 1 1 234-234 235 235 0 0 1-234 234z m26-734h-52c-33 0-57 27-57 62v6a43 43 0 0 1-31 39 426 426 0 0 0-82 33 42 42 0 0 1-48-8l-4-4a62 62 0 0 0-87 0l-37 37a62 62 0 0 0 0 88l4 4a41 41 0 0 1 8 49 419 419 0 0 0-33 80 42 42 0 0 1-39 31h-6c-35 0-62 25-62 57v52c0 33 27 57 62 57h6a43 43 0 0 1 39 31 425 425 0 0 0 48 107l-27 27a62 62 0 0 0 0 87l37 37a62 62 0 0 0 88 0l4-4a42 42 0 0 1 49-8 419 419 0 0 0 80 33 42 42 0 0 1 31 39v6c0 35 25 62 57 62h52c33 0 57-27 57-62v-6a43 43 0 0 1 31-39 426 426 0 0 0 82-33 42 42 0 0 1 48 8l4 4a62 62 0 0 0 87 0l37-37a62 62 0 0 0 0-87l-4-5a41 41 0 0 1-8-48 419 419 0 0 0 33-81 42 42 0 0 1 39-30h6c35 0 62-25 62-58v-52c0-32-27-57-62-57h-6a43 43 0 0 1-39-31 426 426 0 0 0-33-81 41 41 0 0 1 8-48l4-5a62 62 0 0 0 0-87l-37-37a62 62 0 0 0-87 0l-5 4a42 42 0 0 1-48 8 419 419 0 0 0-81-33 42 42 0 0 1-30-39v-6c-1-35-25-62-58-62z m-240 166a60 60 0 0 0 29-8 405 405 0 0 1 77-31c26-8 46-33 46-59v-6c0-20 12-41 36-41h52c24 0 37 21 37 41v6c0 26 19 51 45 59a399 399 0 0 1 76 31 61 61 0 0 0 29 8 63 63 0 0 0 45-19l4-4a42 42 0 0 1 58 0l37 37a41 41 0 0 1 0 58l-4 4a62 62 0 0 0-11 73 405 405 0 0 1 31 77c8 26 32 46 59 46h6c20 0 41 12 41 36v52c0 24-21 37-41 37h-6c-26 0-51 19-59 45a399 399 0 0 1-31 76 62 62 0 0 0 11 74l4 4a41 41 0 0 1 0 58l-37 37a42 42 0 0 1-58 0l-4-4a63 63 0 0 0-72-11 405 405 0 0 1-78 31c-26 8-45 33-45 59v6c0 20-13 41-37 41h-52c-24 0-36-21-36-41v-6c0-26-20-51-46-59a399 399 0 0 1-76-31 61 61 0 0 0-29-8 63 63 0 0 0-45 19l-4 4a42 42 0 0 1-58 0l-37-37a41 41 0 0 1 0-58l39-38-5-7a399 399 0 0 1-50-109c-8-26-32-45-59-45h-6c-20 0-41-13-41-37v-52c0-24 21-36 41-36h6c27 0 51-20 59-46a399 399 0 0 1 31-76 62 62 0 0 0-11-74l-4-4a41 41 0 0 1 0-58l37-37a42 42 0 0 1 58 0l4 4a63 63 0 0 0 44 19z" horiz-adv-x="1000" />

<glyph glyph-name="store" unicode="&#xe821;" d="M1186 95h-855a10 10 0 0 0-10 9l-150 727h-161a10 10 0 1 0 0 19h170a10 10 0 0 0 10-8l149-727h841l191 522h-1045a10 10 0 1 0 0 19h1059a12 12 0 0 0 8-4 9 9 0 0 0 2-8l-200-543a12 12 0 0 0-9-6z m-586-167a78 78 0 1 1-79-78 78 78 0 0 1 79 78z m-20 0a59 59 0 1 0-59 59 59 59 0 0 0 59-59z m488 0a78 78 0 1 1-78-78 78 78 0 0 1 78 78z m-19 0a59 59 0 1 0-59 59 59 59 0 0 0 59-59z" horiz-adv-x="1395" />

<glyph glyph-name="twitter" unicode="&#xe822;" d="M1105 601c1-11 1-22 1-33 0-334-254-718-718-718a713 713 0 0 0-388 113 522 522 0 0 1 61-3 506 506 0 0 1 313 108 253 253 0 0 0-236 175 316 316 0 0 1 48-4 267 267 0 0 1 66 9 252 252 0 0 0-202 247v3a254 254 0 0 1 114-32 253 253 0 0 0-78 338 717 717 0 0 1 520-264 285 285 0 0 0-6 58 253 253 0 0 0 437 172 497 497 0 0 1 160 61 252 252 0 0 0-111-139 506 506 0 0 1 145 39 542 542 0 0 0-126-130z" horiz-adv-x="1231" />

<glyph glyph-name="universita" unicode="&#xe823;" d="M641 182a24 24 0 0 0-11 2l-617 311a24 24 0 0 0 0 42l617 310a24 24 0 0 0 22 0l617-310a24 24 0 0 0 0-43l-617-310a24 24 0 0 0-11-2z m0 657a13 13 0 0 1-6-1l-617-311a13 13 0 0 1 0-22l617-311a13 13 0 0 1 12 0l617 311a13 13 0 0 1 0 22l-617 310a13 13 0 0 1-6 2z m336-977l16 476v0l0 1a24 24 0 0 1-12 17l-401 216a6 6 0 1 1-5-10l400-216a13 13 0 0 0 7-9l-16-475a6 6 0 0 1 5-6h0a6 6 0 0 1 6 6z m-63 127a6 6 0 1 1-5 10l-268-136-465 263v192a6 6 0 1 1-11 0v-199l476-269z" horiz-adv-x="1282" />

<glyph glyph-name="veterinari" unicode="&#xe824;" d="M1899 349a620 620 0 0 1 76 98 246 246 0 0 1 36 129c-1 14-2 29-4 46a297 297 0 0 1-53 120l-3 3a28 28 0 0 0-2 3 416 416 0 0 1-41 46l-4 3c-60 39-121 56-180 53-97-7-190-69-280-185a34 34 0 0 1-7-15q-3-8-5-16c-361-2-648-5-854-9l-3 8a34 34 0 0 1-8 15c-89 113-183 174-280 180-59 4-119-14-179-51l-4-4a401 401 0 0 1-41-43l-6-8a286 286 0 0 1-52-118c-2-15-4-30-5-46a235 235 0 0 1 37-125 598 598 0 0 1 75-95 601 601 0 0 1-72-92h0a236 236 0 0 1-37-127c1-14 3-29 6-46 11-61 44-118 98-168l4-3c60-37 121-55 180-51 95 6 188 65 276 176 430 13 725 13 879 1 88-111 180-171 274-178q8 0 16 0c54 0 110 18 165 53l4 4c53 51 86 108 98 172 3 15 4 31 6 48a241 241 0 0 1-37 126 607 607 0 0 1-73 96z m47-260c-10-50-36-97-79-139-49-30-97-45-143-42-77 5-155 58-233 157v17l-26 3c-154 13-462 13-916-1l-28-1v-21c-78-97-156-149-233-154-46-2-94 11-143 41-43 41-69 86-79 134-2 14-3 27-4 38a175 175 0 0 0 27 93 526 526 0 0 0 85 103l21 21-23 23a521 521 0 0 0-86 103 174 174 0 0 0-28 92c1 13 3 27 4 39a227 227 0 0 0 41 91 67 67 0 0 1 7 9 345 345 0 0 0 32 34c48 30 96 44 142 41 78-5 157-57 235-155 4-10 7-20 10-29l8-20 21 0c211 4 513 7 895 10l22 0 6 21q5 17 12 35c77 100 156 154 235 159 45 3 93-11 142-42a352 352 0 0 0 33-36 83 83 0 0 1 6-8 238 238 0 0 0 40-92c2-14 4-28 4-39a184 184 0 0 0-27-97 549 549 0 0 0-88-108l-22-21 22-21a525 525 0 0 0 85-105 180 180 0 0 0 28-94c-1-12-3-26-5-39z" horiz-adv-x="2011" />

<glyph glyph-name="arrow" unicode="&#xe825;" d="M720-150c-12 0-24 3-35 8-27 13-45 41-45 72v101c0 15-12 27-27 27h-531c-43 0-79 36-79 80 0 14 12 26 26 26s27-12 27-26c0-15 12-27 26-27h531c44 0 80-36 80-80v-101c0-11 6-20 15-24 9-5 20-3 28 3l526 420c6 5 9 13 9 21 0 8-3 16-9 21l-526 420c-8 6-19 8-28 3-9-4-15-13-15-24v-101c0-44-36-80-80-80h-531c-14 0-26-12-26-27v-318c0-15-12-27-27-27s-26 12-26 27v318c0 44 36 80 79 80h531c15 0 27 12 27 27v101c0 31 18 59 45 72 27 13 61 9 84-10l526-420c19-15 30-38 30-62 0-25-11-47-30-63l-526-420c-14-11-32-17-49-17z" horiz-adv-x="1327" />

<glyph glyph-name="parrucchieri-2" unicode="&#xe826;" d="M668 66c-26 8-36 20-42 31-2 3-13 31-26 65l-63 167-175 468c0 0-5-1-4-9 1-3 4-21 4-21l110-456 44-29c0 0 19-12 29-38 3-8 14-38 14-38s8-20 17-44c0 0 19-51 21-67 4-32-3-41-10-47-10-10-18-22-23-36-13-44 11-91 55-104 44-13 91 11 104 55 13 43-11 90-55 103z m-163 251c-11-3-21 3-24 13-3 10 3 20 13 24 10 3 20-3 23-13 3-10-2-20-12-24z m199-349c-10-34-46-52-79-42-34 10-52 46-42 79 10 34 46 52 79 42 33-10 52-45 42-79z m-78 829l-126-355 34-91 92 417c0 0 3 17 3 21 2 7-3 8-3 8z m-190-786c-4 15-12 27-23 37-6 5-14 14-10 47s36 108 36 108 10 29 13 38c10 26 28 37 28 37l16 10-30 19-6 23-1-4c0 0-78-218-85-229-6-10-10-20-42-30-44-14-69-60-55-104 13-44 59-69 103-55 45 13 70 59 56 103z m-139-43c-11 34 9 69 42 79 33 10 68-9 79-42s-9-69-42-79c-34-10-69 9-79 42z m217 369c0 8-7 14-15 14-8 0-14-6-15-14h30z m-30-3c1-8 7-13 16-13 7 0 14 5 14 13h-30z" horiz-adv-x="1000" />

<glyph glyph-name="puntivendita" unicode="&#xe827;" d="M874-60h-748v403c-2 0-3 0-5 0-79 0-101 75-101 84v2l121 331h719l2-5c0 0 30-81 59-162 15-40 29-81 40-111 6-15 10-28 14-37 4-14 6-17 5-19-2-13-25-83-102-83-1 0-3 0-4 0v-403z m-284 16h268v398c-28 6-53 23-73 48-26-32-60-50-95-50-35 0-69 18-95 50-25-31-59-50-94-50-35 0-69 18-94 50-26-31-60-50-95-50-35 0-68 18-94 50-20-26-47-42-75-48v-397h267v286h180v-287z m-150 9h120v249h-120v-249z m343 463l13-13c23-30 52-46 84-46 54 0 71 47 74 57l-113 307h-681l-112-306c13-38 39-58 75-58 30 0 61 17 83 46l11 13 11-13c23-30 52-46 83-46 31 0 62 16 84 46l11 13 10-13c24-31 52-47 84-47 31 0 61 17 84 46l10 14 11-14c23-29 53-46 84-46 30 0 61 17 83 46l11 14z" horiz-adv-x="1000" />

<glyph glyph-name="omino" unicode="&#xe829;" d="M321 709c39 0 71 31 71 70s-32 71-71 71-70-32-70-71 31-70 70-70z m0 127c32 0 57-25 57-57s-25-56-57-56-56 25-56 56 25 57 56 57z m203-397l-186 222c-2 3-5 5-8 7-16 15-38 24-62 24-24 0-46-9-62-24-3-2-6-5-9-8l-186-221c-17-21-14-51 6-69 9-7 21-11 32-11 13 0 27 6 37 17l125 150c0 0 0 0 0 0v-154c0-5 1-11 3-16l-156-427c-10-29 5-61 34-72h0c6-2 13-4 19-4 23 0 45 14 53 37l110 302 111-305c8-23 30-37 53-37 6 0 13 1 19 3 29 11 44 43 34 73l-166 458v142l125-149c9-12 23-18 37-18 11 0 22 4 31 12 20 17 23 47 6 68z m-373-543c-6-17-22-28-40-28-5 0-10 0-14 2-11 4-20 12-24 22-5 10-6 22-2 32l150 413 45-125-115-316z m370 509c-1-10-5-18-12-24-6-5-14-8-22-8-10 0-20 5-26 13l-126 149c-3 3-7 5-11 5-2 0-3-1-5-1-5-2-9-7-9-13v-142c0-1 0-3 1-5l167-458c8-22-3-47-25-54-5-2-10-3-15-3-17 0-34 11-40 28l-116 321 0 0-50 135c0 0 0 0 0 0l0 1c-1 1-1 1-1 2-1 2-2 3-3 4-1 4-2 8-3 12 0 2 0 3 0 5v154c0 4-2 8-6 11l0 0c-3 2-6 3-9 3-4 0-8-2-11-5l-124-149c-7-8-16-13-26-13-9 0-16 3-22 8-7 6-12 14-12 24-1 9 2 18 7 25l186 221c2 2 4 4 6 6 1 0 1 1 1 1 15 13 33 20 52 20 20 0 39-7 53-21 1 0 1 0 1 0 2-2 4-3 6-5l186-222c6-7 9-16 8-25z" horiz-adv-x="535" />

<glyph glyph-name="youtube-play" unicode="&#xf16a;" d="M397 221l270 139-270 141v-280z m103 481q94 0 181-3t128-5l41-2q0 0 9-1t13-2 13-2 16-5 16-7 17-11 16-15q4-3 9-10t16-33 15-56q4-36 7-76t3-64v-98q1-81-10-162-4-30-14-55t-18-35l-8-9q-7-8-16-15t-17-10-16-7-16-5-13-2-13-2-9-1q-140-11-350-11-115 2-201 4t-111 4l-28 3-20 2q-20 3-30 5t-29 12-31 23q-4 3-9 10t-16 33-15 56q-4 36-7 76t-3 64v98q-1 81 10 162 4 31 14 55t18 35l8 9q8 9 16 15t17 11 16 7 16 5 13 2 13 2 9 1q140 10 350 10z" horiz-adv-x="1000" />
</font>
</defs>
</svg>
